it-swarm-ja.com

ターミナルがbashの最後のメッセージまでスクロールダウンしないようにするにはどうすればよいですか?

新しいターミナルで他のコマンドを実行するbashスクリプトを作成します。

#!/bin/bash
# Sample script
gnome-terminal --title="blah blah" -x bash -c ffmpeg -i udp://239.1.2.1:60001?fifo_size=50000000 -acodec copy -vcodec copy -preset ultrafast \
-flags -global_header -f hls -hls_time 20 -hls_wrap 5 /var/www/html/ts/1.m3u8 &

sleep 1

gnome-terminal --title="blah blah" -x bash -c ffmpeg -i udp://239.1.2.2:60002?fifo_size=50000000 -acodec copy -vcodec copy -preset ultrafast \
-flags -global_header -f hls -hls_time 20 -hls_wrap 5 /var/www/html/ts/2.m3u8

ffmpeg行の出力は複数のページであり、次のようになります。

libavutil      54.  7.100 / 54.  7.100
  libavcodec     56.  1.100 / 56.  1.100
  libavformat    56.  4.101 / 56.  4.101

  ... many pages after ....

[h264 @ 0xc04c60] decode_slice_header error
[h264 @ 0xc04c60] no frame!
[h264 @ 0xc04c60] non-existing PPS 0 referenced

.... many pages after .... 

  Program 105 
    Metadata:
      service_name    : IRIB-TV5
      service_provider: IRIB
[adts @ 0xf943e0] Using AVStream.codec.time_base as a timebase hint to the muxer is deprecated. Set AVStream.time_base instead.
Output #0, hls, to '/home/stream/Desktop/tst/1.m3u8':
  Metadata:
    encoder         : Lavf56.4.101
    Stream #0:0: Video: h264 (libx264), yuv420p, 720x576 [SAR 12:11 DAR 15:11], q=-1--1, 25 fps, 90k tbn, 25 tbc
    Metadata:
      encoder         : Lavc56.1.100 libx264
    Stream #0:1(per): Audio: aac, 48000 Hz, stereo, fltp, 128 kb/s
    Metadata:
      encoder         : Lavc56.1.100 aac
Stream mapping:
  Stream #0:0 -> #0:0 (h264 (native) -> h264 (libx264))
  Stream #0:1 -> #0:1 (aac_latm (native) -> aac (native))
Press [q] to stop, [?] for help
[h264 @ 0xf42120] reference picture missing during reorder
[h264 @ 0xf42120] Missing reference picture, default is 65716
[h264 @ 0xf42120] reference picture missing during reorder
[h264 @ 0xf42120] Missing reference picture, default is 65717

このスクリプトを新しいターミナルで実行してコマンド(この場合はffmpeg)を起動すると、すぐに多くの出力行、場合によっては多くのページが表示され、自動的に最後のメッセージに移動します .。。

ターミナルの最初のメッセージまで上下にスクロールしたり、最初のページで停止したりするにはどうすればよいですか?

2
Ali

質問が完全に再定式化された後の更新:

| moreまたは| lessを使用して、最初のページの後の出力を停止できます。

 gnome-terminal --title="blah blah" -x bash -c  ' find  ~  | less'

''を使用して、bashコマンドを終了する場所を指定する必要があります。
less内で移動できます:

  • Home そして End ページの最初と最後まで。
  • PgUp そして PgUp 1ページ下または上。
  • Up そして Dn 上下に1列。

スクリプトの行の1つは、次のようになります。

gnome-terminal --title="blah blah" -x bash -c                                 \
'ffmpeg -i udp://239.1.2.1:60001?fifo_size=50000000 -acodec copy -vcodec copy \
-preset ultrafast -flags -global_header -f hls -hls_time 20 -hls_wrap 5       \
/var/www/html/ts/1.m3u8 | less ' &

いくつかのショートカットがあります:

  • CtrlShift+Up または Dn 行を上下にスクロールするには
  • Shift+PgUpまたは PgDn ページを上下にスクロールするには
  • Shift+Home または End 最初まで上または最後までスクロールするには

他のショートカットについては、 gnomeヘルプページ で直接読むことができます。

1
Hastur