it-swarm-ja.com

YouTube 360​​ Degree Video Filetype

最近、YouTubeで360度のパノラマビューで動画を再生できることを確認しました。 #360Video チャンネル( サンプル動画 )にあります。これらはどのタイプのビデオファイルですか?

また、これらの種類のビデオを見るためにOculus Riftのようなものは必要ありません。カメラをクリックして移動するだけです。

13
user3163829

360度のビデオファイルは、特殊なタイプのMP4ファイルのようです。

ブラウザ拡張機能を使用して、あなたが言及したYouTubeビデオをダウンロードしました。

「VLCメディアプレーヤー」で表示すると、特定のビューではなく、360度のパノラマ全体が表示されます。

enter image description here

編集:2016年11月30日現在 VLCプレーヤーは360ºビデオを再生する 。)

「360度動画のアップロード-YouTubeヘルプ」の記事( link )では、360度動画をアップロードする方法を説明し、Kolorを含むいくつかのソフトウェアリファレンスをリストしています。 Windows、Mac、Android、iOS用の Kolor Eyes Free Video Player は、オンラインでもオフラインでも全天球動画を再生します。

Linuxユーティリティfileは、ビデオをISO Media, MP4 v2 [ISO 14496-14]としてリストします。

Linuxユーティリティmediainfoは、次の情報を一覧表示します。

General
Complete name                            : Time Couch - VR Demo by StressLevelZero.mp4
Format                                   : MPEG-4
Format profile                           : Base Media / Version 2
Codec ID                                 : mp42
File size                                : 21.3 MiB
Duration                                 : 1mn 39s
Overall bit rate mode                    : Variable
Overall bit rate                         : 1 805 Kbps
Encoded date                             : UTC 2015-03-20 08:41:06
Tagged date                              : UTC 2015-03-20 08:41:06
gsst                                     : 0
gstd                                     : 99125
gssd                                     : B0AFCE0EAHM1434753175604513
gshh                                     : r8---sn-q4f7dnsd.googlevideo.com

Video
ID                                       : 1
Format                                   : AVC
Format/Info                              : Advanced Video Codec
Format profile                           : [email protected]
Format settings, CABAC                   : Yes
Format settings, ReFrames                : 1 frame
Codec ID                                 : avc1
Codec ID/Info                            : Advanced Video Coding
Duration                                 : 1mn 39s
Bit rate                                 : 1 611 Kbps
Maximum bit rate                         : 5 691 Kbps
Width                                    : 1 280 pixels
Height                                   : 640 pixels
Display aspect ratio                     : 2.000
Frame rate mode                          : Constant
Frame rate                               : 29.970 fps
Color space                              : YUV
Chroma subsampling                       : 4:2:0
Bit depth                                : 8 bits
Scan type                                : Progressive
Bits/(Pixel*Frame)                       : 0.066
Stream size                              : 19.0 MiB (89%)
Tagged date                              : UTC 2015-03-20 08:41:07

Audio
ID                                       : 2
Format                                   : AAC
Format/Info                              : Advanced Audio Codec
Format profile                           : LC
Codec ID                                 : 40
Duration                                 : 1mn 39s
Bit rate mode                            : Variable
Bit rate                                 : 192 Kbps
Maximum bit rate                         : 201 Kbps
Channel(s)                               : 2 channels
Channel positions                        : Front: L R
Sampling rate                            : 44.1 KHz
Compression mode                         : Lossy
Stream size                              : 2.27 MiB (11%)
Title                                    : IsoMedia File Produced by Google, 5-11-2011
Language                                 : English
Encoded date                             : UTC 2015-03-20 08:41:07
Tagged date                              : UTC 2015-03-20 08:41:07

最後に、 Spherical Video RFC(draft) は、360度の動画に必要な全天球動画形式のメタデータを記述しています。

15
Steven

これらの360度ビデオファイルは、別名sphericalまたはequirectangularビデオです。 YouTubeクリエイター ブログ投稿 で述べたように、360度形式のビデオのファイル情報のメタデータはgithubリンクにあります

https://github.com/google/spatial-media/tree/master/360-Videos-Metadata

これらの特別な360度ビデオは、MP4またはMKV( Matroska/WebM )(360度ビデオファイルとして表すメタデータファイル)のいずれかですpython =スクリプト 60VideosMetadata.py

これは、YouTubeの360度動画ファイルの一般的な推奨設定をアップロードするための設定です。

したがって、ファイルにはこれらの推奨ビットレート、コーデック、および解像度が必要です。

ファイル形式情報:

  • コンテナ:_MP4_
  • オーディオコーデック:_AAC-LC_

    _- Channels: Stereo or Stereo + 5.1
    - Sample rate 96khz or 48khz
    _
  • ビデオコーデック:_H.264_

  • フレームレート:24、25、30、48、50、60フレーム/秒(他のフレームレートも許容されます)。
  • 動画ビットレート(24、25、30)-2160pixels(4k) maxから_360p_ minまでさまざまです。
  • オーディオビットレート(48、50、60):

    _Mono   - 128 kbps
    Stereo - 384kbps
    5.1    - 512kbps
    _
  • 解像度とアスペクト比:

    _2160p: 3840x2160
    1440p: 2560x1440
    1080p: 1920x1080
    720p : 1280x720
    480p : 854x480
    360p : 640x360
    240p : 426x240
    _

これは、YouTubeでの360度ビデオの推奨アップロードビデオファイルエンコーディング設定です。 推奨ページ の詳細。

5
Lucky

標準のビデオ形式、MPEG、FLVなどのようです。

3
loggik

これらの360ビデオのオーディオは、4チャネルのアンビソニックス1次として(ACNチャネルの次数とSN3Dゲインの正規化を使用して)作成する必要があることに注意してください。YouTubeの仕様によると https://support.google。 com/youtube/answer/6395969?hl = ja

モノまたはステレオのサウンドトラックを含む360ビデオをアップロードすることは絶対に間違っています。オーディオがビデオと共に回転しないため、視聴者が気分を害します...代わりに、適切なAmbisonicsサウンドトラックが使用されている場合、サウンドはビデオビューポートに対応します( Google Cardboard双眼鏡ビューアを使用していない場合でも)。

1
Angelo Farina